Skip to content

June 25, 2010

The Runaways (2010) DVDSCR Xvid | Mediafire links


The Runaways (2010) DVDSCR Xvid | Mediafire links


The story of musicians Joan Jett, Cherie Currie and Sandy West and their all-female rock band The Runaways. The Runaways stars Kristen

Stewart, Dakota Fanning, Michael Shannon, Scout Taylor-Compton, and Brett Cullen. The Runaways is directed by Floria Sigismondi and will be in

theaters March 19, 2010.

General
complete name : The.Runaways.2010.DVDSCR.XviD-TA.avi
Format : AVI
Format/Info : Audio Video Interleave
File size : 769 MiB
Duration : 1h 46mn
Overall bit rate : 1 008 Kbps
Movie name : DEFAULTNTSC_SCN.Title1.DVDRip
Writing application : Lavf52.33.0
Writing library : VirtualDub build 32661/release
Original source form/Name : DEFAULTNTSC_SCN
Video
ID : 0
Format : MPEG-4 Visual
Format profile : AdvancedSimple@L5
Format settings, BVOP : Yes
Format settings, QPel : No
Format settings, GMC : No warppoints
Format settings, Matrix : Default (H.263)
Muxing mode : Packed bitstream
Codec ID : XVID
Codec ID/Hint : XviD
Duration : 1h 46mn
Bit rate : 806 Kbps
Width : 740 pixels
Height : 306 pixels
Display aspect ratio : 2.40:1
Frame rate : 23.976 fps
Resolution : 24 bits
Colorimetry : 4:2:0
Scan type : Progressive
Bits/(Pixel*Frame) : 0.149
Stream size : 615 MiB (80%)
Writing library : XviD 1.2.1 (UTC 2008-12-04)

Audio
ID : 1
Format : AC-3
Format/Info : Audio Coding 3
Codec ID : 2000
Duration : 1h 46mn
Bit rate mode : Constant
Bit rate : 192 Kbps
Channel(s) : 2 channels
Channel positions : L R
Sampling rate : 48.0 KHz
Stream size : 146 MiB (19%)
Alignment : Split accross interleaves
Interleave, duration : 42 ms (1.00 video frame)
Interleave, preload duration : 500 ms




http://www.mediafire.com/download.php?yncfzzonjim

http://www.mediafire.com/download.php?zrdet5y2bwz

http://www.mediafire.com/download.php?n3mhztwmgym

http://www.mediafire.com/download.php?dmmdzmm2xaw


The Runaways (2010) DVDSCR Xvid | Mediafire links

Incoming Search Terms

Download "The Runaways (2010) DVDSCR X..." via MediaGet

Download at maximum speed using new torrent client!

Share your thoughts, post a comment.

(required)
(required)

Note: HTML is allowed. Your email address will never be published.

Subscribe to comments


nine − = 4